PERFORMER "DJ Doboy"
TITLE "Trancequility 33"
FILE "dj_doboy-trancequility_volume_33.mp3" MP3
TRACK 01 AUDIO
TITLE "Appears (armin van buurens sunset dub mix)"
PERFORMER "Ayu"
INDEX 01 00:00:00
TRACK 02 AUDIO
TITLE "Global Getaways"
PERFORMER "Solar Factor"
INDEX 01 07:17:18
TRACK 03 AUDIO
TITLE "Diving Faces 2005"
PERFORMER "Divers Faced"
INDEX 01 13:20:49
TRACK 04 AUDIO
TITLE "Natural Signs"
PERFORMER "Fractal Structure"
INDEX 01 18:49:24
TRACK 05 AUDIO
TITLE "Go Fly (Kerosin Mix)"
PERFORMER "Cern"
INDEX 01 26:08:33
TRACK 06 AUDIO
TITLE "Santiago (Jorn Van Deynhoven Remix)"
PERFORMER "Hemstock & Jennings Present h2j"
INDEX 01 32:27:36
TRACK 07 AUDIO
TITLE "Listen (DJ Speed Remix)"
PERFORMER "Muh & Tjam"
INDEX 01 37:45:07
TRACK 08 AUDIO
TITLE "Calibro (Original Mix)"
PERFORMER "Vascotia"
INDEX 01 43:55:39
TRACK 09 AUDIO
TITLE "Yalley of Love (Vascotia vs Kimito Lopez Remix)"
PERFORMER "Eterna"
INDEX 01 50:13:15
TRACK 10 AUDIO
TITLE "One With You (29 Palms Pete Lorimer Club Mix)"
PERFORMER "Sun"
INDEX 01 55:31:07
TRACK 11 AUDIO
TITLE "Transparent (Benz and MDs Aurium Mix)"
PERFORMER "Jan Johnston & Serge Devant"
INDEX 01 62:11:01
TRACK 12 AUDIO
TITLE "Alive (Original Mix)"
PERFORMER "Josh Gabriel"
INDEX 01 71:20:21